◎译  名 蜘蛛侠:英雄远征 / 新蜘蛛侠2 / 蜘蛛侠2 / 蜘蛛侠2:离家出走(豆友译名) / 蜘蛛侠2:英雄离乡 / 蜘蛛侠2:远离家乡 / 蜘蛛侠:决战千里(港) / 蜘蛛侠:归来2 / 蜘蛛侠:离家日(台) / 蜘蛛侠:英雄归来2 / 蜘蛛侠:远离故乡
◎片  名 Spider-Man: Far from Home
◎年  代 2019
◎产  地 美国
◎类  别 动作 / 科幻 / 冒险
◎语  言 英语
◎上映日期 2019-06-28(中国大陆) / 2019-07-02(美国)
◎IMDb评分  7.9/10 from 161425 users
◎IMDb链接  http://www.imdb.com/title/tt6320628
◎豆瓣评分 7.9/10 from 346059 users
◎豆瓣链接 https://movie.douban.com/subject/26931786/
◎片  长 127分钟
◎导  演 乔·沃茨 Jon Watts
◎编  剧 克里斯·麦克纳 Chris McKenna / 埃里克·萨默斯 Erik Sommers / 史蒂夫·迪特寇 Steve Ditko / 斯坦·李 Stan Lee
◎主  演 汤姆·赫兰德 Tom Holland
       赞达亚 Zendaya
       杰克·吉伦哈尔 Jake Gyllenhaal
       寇碧·史莫德斯 Cobie Smulders
       塞缪尔·杰克逊 Samuel L. Jackson
       乔恩·费儒 Jon Favreau
       玛丽莎·托梅 Marisa Tomei
       雅各布·巴特朗 Jacob Batalon
       安格瑞·赖斯 Angourie Rice
       马丁·斯塔尔 Martin Starr
       瑞米·海依 Remy Hii
       纽曼·阿卡 Numan Acar
       托尼·雷沃罗利 Tony Revolori
       J·B·斯穆夫 J.B. Smoove
       赫米基·马德拉 Hemky Madera
       戴维娜·西塔拉姆 Davina Sitaram
       约瑟夫·朗 Joseph Long
       露丝·霍洛克斯 Ruth Horrocks
       哈廷·帕特尔 Hiten Patel
       杰罗恩·凡·康宁斯伯格 Jeroen van Koningsbrugge
       Leonys Delossantos
       查利·蕾娅·埃斯奎尔 Charlie Rhea Esquér
       费斯·洛根 Faith Logan
       J·K·西蒙斯 J.K. Simmons
       小罗伯特·唐尼 Robert Downey Jr.


◎标  签 漫威 | 超级英雄 | 美国 | 科幻 | 2019 | 成长 | 动作 | 漫画改编

◎简  介  

  在复仇者联盟众英雄的努力下,于灭霸无限手套事件中化作为灰烬的人们,重新回到了人世间,曾经消失的蜘蛛侠 彼得帕克 也回归到了普通的生活之中,数月后,蜘蛛侠彼得帕克所在的学校举行了欧洲旅游,帕克也在其中, 在欧州威尼斯旅行时,一个巨大无比的水怪袭击了威尼斯,不敌敌人的蜘蛛侠幸得一位自称神秘客的男子搭救才击退敌人,之后 神盾局局长找上正在旅游的彼得帕克并要求其加入神盾局,并安排神秘客协助帕克,神秘客自称来自其他宇宙,并告知一群名为元素众的邪恶势力已经入侵这个宇宙了,为了守护来之不易的和平,蜘蛛侠决定与神秘客联手,然而在神秘客那头罩之中,似乎隐藏着什么不为人知的真相……

◎获奖情况  

  第5届豆瓣电影年度榜单(2018)
  最值得期待的外语电影(提名)

Video
ID                                       : 1
Format                                   : AVC
Format/Info                              : Advanced Video Codec
Format profile                           : High@L4.1
Format settings                          : CABAC / 5 Ref Frames
Format settings, CABAC                   : Yes
Format settings, Reference frames        : 5 frames
Codec ID                                 : V_MPEG4/ISO/AVC
Duration                                 : 2 h 9 min
Bit rate                                 : 10.6 Mb/s
Width                                    : 1 920 pixels
Height                                   : 808 pixels
Display aspect ratio                     : 2.40:1
Frame rate mode                          : Constant
Frame rate                               : 23.976 (24000/1001) FPS
Color space                              : YUV
Chroma subsampling                       : 4:2:0
Bit depth                                : 8 bits
Scan type                                : Progressive
Bits/(Pixel*Frame)                       : 0.285
Stream size                              : 9.57 GiB (88%)
Writing library                          : x264 core 158 r2984 3759fcb
Encoding settings                        : cabac=1 / ref=5 / deblock=1:-3:-3 / analyse=0x3:0x113 / me=umh / subme=8 / psy=1 / psy_rd=1.00:0.00 / mixed_ref=1 / me_range=16 / chroma_me=1 / trellis=1 / 8x8dct=1 / cqm=0 / deadzone=21,11 / fast_pskip=1 / chroma_qp_offset=-2 / threads=25 / lookahead_threads=4 / sliced_threads=0 / nr=0 / decimate=1 / interlaced=0 / bluray_compat=0 / constrained_intra=0 / bframes=3 / b_pyramid=2 / b_adapt=1 / b_bias=0 / direct=3 / weightb=1 / open_gop=0 / weightp=2 / keyint=250 / keyint_min=23 / scenecut=40 / intra_refresh=0 / rc_lookahead=50 / rc=2pass / mbtree=1 / bitrate=10585 / ratetol=1.0 / qcomp=0.60 / qpmin=0 / qpmax=69 / qpstep=4 / cplxblur=20.0 / qblur=0.5 / ip_ratio=1.40 / aq=1:1.00
Language                                 : English
Default                                  : Yes
Forced                                   : No

Audio
ID                                       : 2
Format                                   : DTS
Format/Info                              : Digital Theater Systems
Codec ID                                 : A_DTS
Duration                                 : 2 h 9 min
Bit rate mode                            : Constant
Bit rate                                 : 1 509 kb/s
Channel(s)                               : 6 channels
Channel layout                           : C L R Ls Rs LFE
Sampling rate                            : 48.0 kHz
Frame rate                               : 93.750 FPS (512 SPF)
Bit depth                                : 24 bits
Compression mode                         : Lossy
Stream size                              : 1.36 GiB (12%)
Language                                 : English
Default                                  : Yes
Forced                                   : No
迅雷下载:
游客,如果您要查看本帖隐藏内容请回复

本帖子中包含更多资源,您需要 登录 才可以下载或查看,没有帐号?立即注册
收藏
28 条回帖
PicoFans_7M1T6V 恒星2019年9月29日 09:10
看看怎么样。
PicoFans_2T0D8K 卫星2019年9月29日 21:06
谢谢分享
唯爱杨蓉 恒星2019年9月30日 10:24
发顺丰大事发生
PicoFans_9J9J5S 卫星2019年10月1日 23:04
1111111111111
PicoFans_7S1Z9Z 行星2019年10月2日 03:39
PicoFans_7Y0Y4E 卫星2019年10月3日 02:07来自手机
666
PicoFans_5C2K7B 恒星2019年10月6日 10:28
ddddddddddddddddddddddddddddddddddddddd
PicoFans_4Q9V3B 小行星2019年10月7日 17:52
谢谢分享!
大仙大仙 卫星2019年10月8日 07:42
看看这是啥
PicoFans_3D7B1N 卫星2019年10月8日 18:00来自手机
看看
PicoFans_2O1J4O 行星2019年10月8日 20:49
蜘蛛侠
ltyytzb 卫星2019年10月9日 08:36
看看
PicoFans_2K6K0L 行星2019年10月9日 16:13
谢谢分享!
PicoFans_7U2D9X 超新星2019年10月11日 13:44来自手机
hghshdhd
12下一页

返回顶部